Anonymous, доброй ночи, присоединяйтесь к нам в Telegram!, здесь всегда актуальный адрес сайта, оперативная поддержка и многое другое!

>

5.6

iTunes

7.4

iTunes

5.7

MVO

1

7.7

1 сезон

6.8

iTunes

7.3

1 сезон

13

6.7

1 сезон

8.3

RePack

30

ULTIMATE

pack

9.9

Лицензия

ВАЖНО

ИГРА 18+

pack

7.3

RePack

MK11

7.7

RePack

jed

7.8

RePack

fifa19

8.5

RePack

RDR2

RePack

NEED FOR SPEED™ PAYBACK

4 сезон

9 сезон

Бесстыжие 9 сезон

Все сериалы

все сериалы на PB.wtf

RePack

FAR CRY 5

Anonymous, доброй ночи, мы катастрофически не успеваем собрать деньги на оплату серверов, помогите нам пожалуйста 5,10,15р., для нас важна любая помощь . В качестве благодарности мы отключим Вам всю рекламу на сайте (укажите свой ник в строку Ваше имя)!

×
  
Magnet ссылка

Oxxxymiron - Вечный жид 2011 / FLAC (tracks+.cue) / lossless / Rap / Hip-Hop kino.freetor.icu

Oxxxymiron - Вечный жид 2011 через торрент kino.freetor.icu

Размер: 335 MB | Добавлен: 8 лет 9 мес. назад | Торрент скачан:260 раз
Смотреть онлайн Oxxxymiron - Вечный жид 2011 | Скачать    Ребята, помогите собрать деньги на оплату серверов!!!

23-12-2012 13:10 Oxxxymiron - Вечный жид 2011 Скачать торрент  

Oxxxymiron - Вечный жид (2011)
Страна: Россия
Год Выпуска: 2011
Жанр: Rap / Hip-Hop
Издатель (лейбл): MMDC
Номер по каталогу: МДС-CD 047/11
Продолжительность: 00:41:33
Кодек: FLAC (*.flac)
Тип рипа: tracks+.cue
Битрейт: lossless
Наличие сканов в содержимом раздачи: да
  • 01. Восточный Мордор
  • 02. Тентакли
  • 03. Спонтанное самовозгорание
  • 04. CCTV
  • 05. До сих пор MC
  • 06. Привет со дна (feat. Dom!no)
  • 07. Вечный жид
  • 08. В бульбуляторе
  • 09. Судьба моралиста
  • 10. Цифры и цвета
  • 11. Russky Cockney
  • 12. В говне
  • 13. Крокодиловы слёзы
  • 14. Жук в муравейнике (feat. SCHOKK)

Exact Audio Copy V0.99 prebeta 5 from 4. May 2009

Отчёт EAC об извлечении, выполненном 28. октября 2011, 12:47

Oxxxymiron / Вечный жид

Дисковод: LITE-ON DVDRW SHM-165P6S Adapter: 5 ID: 0

Режим чтения : Достоверность
Использование точного потока : Да
Отключение кэша аудио : Да
Использование указателей C2 : Нет

Коррекция смещения при чтении : 6
Способность читать области Lead-in и Lead-out : Нет
Заполнение пропущенных сэмплов тишиной : Да
Удаление блоков с тишиной в начале и конце : Нет
При вычислениях CRC использовались нулевые сэмплы : Да
Интерфейс : Установленный внешний ASPI-интерфейс
Обработка зазоров : Добавлено к предыдущему треку

Выходной формат : Пользовательский кодировщик
Выбранный битрейт : 1024 kBit/s
Качество : Высокий
Добавление ID3-тэга : Нет
Утилита сжатия : D:SoftExact Audio CopyFlacflac.exe
Дополнительные параметры : -8 -V -T "ARTIST=%a" -T "TITLE=%t" -T "ALBUM=%g" -T "DATE=%y" -T "TRACKNUMBER=%n" -T "GENRE=%m" -T "COMMENT=EAC FLAC -8" %s

TOC извлечённого CD

Трек | Старт | Длительность | Начальный сектор | Конечный сектор
---------------------------------------------------------------------
1 | 0:00.00 | 2:49.00 | 0 | 12674
2 | 2:49.00 | 3:41.00 | 12675 | 29249
3 | 6:30.00 | 2:32.66 | 29250 | 40715
4 | 9:02.66 | 2:17.00 | 40716 | 50990
5 | 11:19.66 | 3:24.35 | 50991 | 66325
6 | 14:44.26 | 5:05.41 | 66326 | 89241
7 | 19:49.67 | 2:33.64 | 89242 | 100780
8 | 22:23.56 | 2:47.03 | 100781 | 113308
9 | 25:10.59 | 1:53.14 | 113309 | 121797
10 | 27:03.73 | 2:41.00 | 121798 | 133872
11 | 29:44.73 | 2:37.00 | 133873 | 145647
12 | 32:21.73 | 2:30.08 | 145648 | 156905
13 | 34:52.06 | 2:41.00 | 156906 | 168980
14 | 37:33.06 | 4:00.06 | 168981 | 186986

Трек 1

Имя файла D:MusicLosslessOxxxymiron - Вечный жид (FLAC) 2011\01 Восточный Мордор.wav

Длина предзазора 0:00:02.00

Пиковый уровень 98.8 %
Качество трека 99.9 %
CRC теста 17466C9B
CRC копии 17466C9B
Копирование... OK

Трек 2

Имя файла D:MusicLosslessOxxxymiron - Вечный жид (FLAC) 2011\02 Тентакли.wav

Длина предзазора 0:00:01.00

Пиковый уровень 98.8 %
Качество трека 100.0 %
CRC теста 6B9B1422
CRC копии 6B9B1422
Копирование... OK

Трек 3

Имя файла D:MusicLosslessOxxxymiron - Вечный жид (FLAC) 2011\03 Спонтанное самовозгорание.wav

Длина предзазора 0:00:01.00

Пиковый уровень 98.8 %
Качество трека 100.0 %
CRC теста 9038539C
CRC копии 9038539C
Копирование... OK

Трек 4

Имя файла D:MusicLosslessOxxxymiron - Вечный жид (FLAC) 2011\04 CCTV.wav

Длина предзазора 0:00:01.00

Пиковый уровень 98.8 %
Качество трека 100.0 %
CRC теста 5149A7A8
CRC копии 5149A7A8
Копирование... OK

Трек 5

Имя файла D:MusicLosslessOxxxymiron - Вечный жид (FLAC) 2011\05 До сих пор MC.wav

Длина предзазора 0:00:01.00

Пиковый уровень 98.8 %
Качество трека 100.0 %
CRC теста 33A9856E
CRC копии 33A9856E
Копирование... OK

Трек 6

Имя файла D:MusicLosslessOxxxymiron - Вечный жид (FLAC) 2011\06 Привет со дна (feat. Dom!no).wav

Длина предзазора 0:00:01.00

Пиковый уровень 98.8 %
Качество трека 100.0 %
CRC теста 8154AECB
CRC копии 8154AECB
Копирование... OK

Трек 7

Имя файла D:MusicLosslessOxxxymiron - Вечный жид (FLAC) 2011\07 Вечный жид.wav

Длина предзазора 0:00:01.00

Пиковый уровень 100.0 %
Качество трека 100.0 %
CRC теста 458CBE2E
CRC копии 458CBE2E
Копирование... OK

Трек 8

Имя файла D:MusicLosslessOxxxymiron - Вечный жид (FLAC) 2011\08 В бульбуляторе.wav

Длина предзазора 0:00:01.00

Пиковый уровень 98.8 %
Качество трека 99.9 %
CRC теста 40696581
CRC копии 40696581
Копирование... OK

Трек 9

Имя файла D:MusicLosslessOxxxymiron - Вечный жид (FLAC) 2011\09 Судьба моралиста.wav

Длина предзазора 0:00:01.00

Пиковый уровень 98.8 %
Качество трека 100.0 %
CRC теста ED238660
CRC копии ED238660
Копирование... OK

Трек 10

Имя файла D:MusicLosslessOxxxymiron - Вечный жид (FLAC) 201110 Цифры и цвета.wav

Длина предзазора 0:00:01.00

Пиковый уровень 98.8 %
Качество трека 100.0 %
CRC теста EB6C4CFF
CRC копии EB6C4CFF
Копирование... OK

Трек 11

Имя файла D:MusicLosslessOxxxymiron - Вечный жид (FLAC) 201111 Russky Cockney.wav

Длина предзазора 0:00:01.00

Пиковый уровень 98.8 %
Качество трека 100.0 %
CRC теста D105A788
CRC копии D105A788
Копирование... OK

Трек 12

Имя файла D:MusicLosslessOxxxymiron - Вечный жид (FLAC) 201112 В говне.wav

Длина предзазора 0:00:01.00

Пиковый уровень 98.8 %
Качество трека 99.9 %
CRC теста EF303076
CRC копии EF303076
Копирование... OK

Трек 13

Имя файла D:MusicLosslessOxxxymiron - Вечный жид (FLAC) 201113 Крокодиловы слёзы.wav

Длина предзазора 0:00:01.00

Пиковый уровень 98.8 %
Качество трека 100.0 %
CRC теста 894A991D
CRC копии 894A991D
Копирование... OK

Трек 14

Имя файла D:MusicLosslessOxxxymiron - Вечный жид (FLAC) 201114 Жук в муравейнике (feat. SCHOKK).wav

Длина предзазора 0:00:01.00

Пиковый уровень 100.0 %
Качество трека 99.9 %
CRC теста AC492D97
CRC копии AC492D97
Копирование... OK

Ошибок не произошло

Конец отчёта

REM GENRE Rap
REM DATE 2011
REM DISCID BF09BD0E
REM COMMENT "ExactAudioCopy v0.99pb5"
PERFORMER "Oxxxymiron"
TITLE "Вечный жид"
FILE "01 Восточный Мордор.wav" WAVE
TRACK 01 AUDIO
TITLE "Восточный Мордор"
PERFORMER "Oxxxymiron"
INDEX 01 00:00:00
TRACK 02 AUDIO
TITLE "Тентакли"
PERFORMER "Oxxxymiron"
INDEX 00 02:48:00
FILE "02 Тентакли.wav" WAVE
INDEX 01 00:00:00
TRACK 03 AUDIO
TITLE "Спонтанное самовозгорание"
PERFORMER "Oxxxymiron"
INDEX 00 03:40:00
FILE "03 Спонтанное самовозгорание.wav" WAVE
INDEX 01 00:00:00
TRACK 04 AUDIO
TITLE "CCTV"
PERFORMER "Oxxxymiron"
INDEX 00 02:31:66
FILE "04 CCTV.wav" WAVE
INDEX 01 00:00:00
TRACK 05 AUDIO
TITLE "До сих пор MC"
PERFORMER "Oxxxymiron"
INDEX 00 02:16:00
FILE "05 До сих пор MC.wav" WAVE
INDEX 01 00:00:00
TRACK 06 AUDIO
TITLE "Привет со дна (feat. Dom!no)"
PERFORMER "Oxxxymiron"
INDEX 00 03:23:35
FILE "06 Привет со дна (feat. Dom!no).wav" WAVE
INDEX 01 00:00:00
TRACK 07 AUDIO
TITLE "Вечный жид"
PERFORMER "Oxxxymiron"
INDEX 00 05:04:41
FILE "07 Вечный жид.wav" WAVE
INDEX 01 00:00:00
TRACK 08 AUDIO
TITLE "В бульбуляторе"
PERFORMER "Oxxxymiron"
INDEX 00 02:32:64
FILE "08 В бульбуляторе.wav" WAVE
INDEX 01 00:00:00
TRACK 09 AUDIO
TITLE "Судьба моралиста"
PERFORMER "Oxxxymiron"
INDEX 00 02:46:03
FILE "09 Судьба моралиста.wav" WAVE
INDEX 01 00:00:00
TRACK 10 AUDIO
TITLE "Цифры и цвета"
PERFORMER "Oxxxymiron"
INDEX 00 01:52:14
FILE "10 Цифры и цвета.wav" WAVE
INDEX 01 00:00:00
TRACK 11 AUDIO
TITLE "Russky Cockney"
PERFORMER "Oxxxymiron"
INDEX 00 02:40:00
FILE "11 Russky Cockney.wav" WAVE
INDEX 01 00:00:00
TRACK 12 AUDIO
TITLE "В говне"
PERFORMER "Oxxxymiron"
INDEX 00 02:36:00
FILE "12 В говне.wav" WAVE
INDEX 01 00:00:00
TRACK 13 AUDIO
TITLE "Крокодиловы слёзы"
PERFORMER "Oxxxymiron"
INDEX 00 02:29:08
FILE "13 Крокодиловы слёзы.wav" WAVE
INDEX 01 00:00:00
TRACK 14 AUDIO
TITLE "Жук в муравейнике (feat. SCHOKK)"
PERFORMER "Oxxxymiron"
INDEX 00 02:40:00
FILE "14 Жук в муравейнике (feat. SCHOKK).wav" WAVE
INDEX 01 00:00:00

fooCDtect - foobar2000 + auCDtect, baralgin.

auCDtect: CD records authenticity detector, version 0.8.2
Copyright (c) 2004 Oleg Berngardt. All rights reserved.
Copyright (c) 2004 Alexander Djourik. All rights reserved.

mode: 0

=======================================================
Track: 01 Восточный Мордор
Quality: CDDA, 100%
=======================================================
Track: 02 Тентакли
Quality: CDDA, 99%
=======================================================
Track: 03 Спонтанное самовозгорание
Quality: CDDA, 100%
=======================================================
Track: 04 CCTV
Quality: CDDA, 100%
=======================================================
Track: 05 До сих пор MC
Quality: CDDA, 100%
=======================================================
Track: 06 Привет со дна (feat. Dom!no)
Quality: CDDA, 100%
=======================================================
Track: 07 Вечный жид
Quality: CDDA, 100%
=======================================================
Track: 08 В бульбуляторе
Quality: CDDA, 100%
=======================================================
Track: 09 Судьба моралиста
Quality: CDDA, 100%
=======================================================
Track: 10 Цифры и цвета
Quality: CDDA, 100%
=======================================================
Track: 11 Russky Cockney
Quality: CDDA, 100%
=======================================================
Track: 12 В говне
Quality: CDDA, 100%
=======================================================
Track: 13 Крокодиловы слёзы
Quality: CDDA, 100%
=======================================================
Track: 14 Жук в муравейнике (feat. SCHOKK)
Quality: CDDA, 100%
=======================================================
kino.freetor.icu



Скачать Oxxxymiron - Вечный жид 2011 через торрент http://i4.imageban.ru/out/2012/07/28/3987449d5f35a3102ce1ffa90d3bd191.jpg Скачать, смотреть онлайн Oxxxymiron - Вечный жид 2011 бесплантно в хорошем качестве Треклист Восточный Мордор Тентакли Спонтанное самовозгорание CCTV До сих пор MC Привет со дна (feat. Dom!no) Вечный ... 10 10 11
Info! Золотая раздача, скачанное не засчитывается.
Торрент: Зарегистрирован [2012-12-23 13:10] · скачан: 260 раз
Статус: √ проверено
Размер: 335 MB
Как cкачать? Как скачать Oxxxymiron - Вечный жид 2011 через торрент | UTorrent

28-11-2019 20:33  

Отключить всю рекламу на сайте

07-10-2015 10:12 Oxxxymiron - Вечный жид 2011 Скачать торрент  

это что за извращение , где мп3?kino.freetor.icu



    Дорогой пользователь! Огромная просьба, поблагодарите релизера, оцените раздачу и оставьте свои комментарий, если Вы скачали Oxxxymiron - Вечный жид 2011 через торрент бесплатно!
    Комментировать посты могут только пользователи прошедшие не сложную регистрацию
    Показать сообщения:    

    Oxxxymiron - Вечный жид 2011 через торрент
    Скачать бесплатно Oxxxymiron - Вечный жид 2011
    Oxxxymiron - Вечный жид 2011 скачать торрент
    Oxxxymiron - Вечный жид 2011 смотреть онлайн
    Cкачать фильм Oxxxymiron - Вечный жид 2011 бесплатно
    Oxxxymiron - Вечный жид 2011 скачать торрент в хорошем качестве
    Oxxxymiron - Вечный жид 2011 смотреть онлайн бесплатно в хорошем качестве


    Вы не можете начинать темы
    Вы не можете отвечать на сообщения
    Вы не можете редактировать свои сообщения
    Вы не можете удалять свои сообщения
    Вы не можете голосовать в опросах
    Вы не можете прикреплять файлы к сообщениям
    Вы можете скачивать файлы